#TITLE:Champion Cynthia;
#SUBTITLE:Pokemon Diamond/Pearl;
#ARTIST:Hitomi Sato, Junichi Masuda;
#TITLETRANSLIT:;
#SUBTITLETRANSLIT:;
#ARTISTTRANSLIT:;
#CREDIT:;
#BANNER:CC-bn.jpg;
#BACKGROUND:Champion Cynthia-bg.jpg;
#LYRICSPATH:;
#CDTITLE:!cdtitle.png;
#MUSIC:66 Champion - Shirona.mp3;
#OFFSET:-0.420;
#SAMPLESTART:5.339;
#SAMPLELENGTH:12.000;
#SELECTABLE:YES;
#BPMS:0.000=202.040;
#STOPS:;
#BGCHANGES:;
// cache tags:
#FIRSTBEAT:0.000;
#LASTBEAT:137.667;
#SONGFILENAME:Songs/Music V.I.P ^_^/championcynthia/cynthiabtl.sm;
#HASMUSIC:1;
#HASBANNER:1;
#MUSICLENGTH:44.564;
// end cache tags

//---------------dance-single - ----------------
#NOTES:
     dance-single:
     :
     Hard:
     13:
     1.000,1.000,1.000,0.067,1.000,387.000,105.000,3.000,0.000,29.000:
1000
0100
0010
1001
0000
0000
0001
0010
0100
1001
0000
0000
,
0010
1000
0001
0110
0000
0000
0001
0100
0010
1100
0000
0000
,
1001
0000
0000
1001
0100
0010
1100
0001
0010
1001
0100
0010
,
1100
0001
0010
1001
0100
0010
1100
0010
1000
0011
0100
0010
,
1000
0001
1000
0011
0111
1000
0100
0010
0001
1010
1110
0001
,
1000
0010
0100
1001
1011
0100
0010
0100
1000
0011
0111
1000
,
0100
0010
0001
0110
1110
0001
0010
0100
1000
0110
1011
0100
,
0001
0100
0010
1001
1101
0010
1000
0001
1000
0101
0111
1000
,
0001
0100
0010
1100
1101
0010
1000
0100
0010
1001
1101
0010
,
0100
0001
1000
0110
0111
1000
0100
0010
0001
0110
1011
0100
,
0010
0001
0010
1100
1101
0010
0100
0001
1000
0011
1011
0100
,
0010
1000
0010
1001
1101
0010
0001
1000
0100
0011
0111
1000
,
0100
0010
0001
1100
1110
0001
1000
0010
0100
0011
1011
0100
,
0010
1000
0010
1001
1110
0001
0010
1000
0001
1010
1011
0100
,
0010
1000
0001
1100
1011
0100
0010
0001
0010
1001
1110
0001
,
0010
0100
1000
0011
0111
1000
0010
0100
0001
0110
1110
0001
,
1000
1000
0000
0001
1000
0011
1000
0010
0101
1000
0100
1010
,
0001
0100
1001
0100
0001
0110
1000
0100
0011
0100
1000
0101
,
0010
0100
1001
0010
0100
0011
1001
1001
1001
1101
0000
0000
,
1000
1000
0000
0100
0010
0101
1000
0100
1010
0001
0010
1100
,
0010
1000
0011
0100
1000
0110
0001
0100
0011
0100
1000
0110
,
1000
0100
0011
1000
0001
1100
0001
0010
1100
0010
0100
1010
,
1001
1001
1001
1011
0000
0000
1010
1010
1010
1110
0000
0000
,
0110
0110
0110
1111
0000
0000
1000
0100
0010
0001
0010
0100
,
1000
0100
0010
1000
0100
0010
0100
0010
0001
0100
0010
0001
,
0010
0100
1000
0010
0100
1000
0100
0010
0001
0100
0010
0001
,
1000
0100
0010
1000
0100
0010
0100
0010
0001
0100
0010
0001
,
0010
0100
1000
0010
0100
1000
0001
0010
0100
0001
0010
0100
,
1000
0100
0010
1000
0100
0010
0100
0010
0001
1000
0100
0010
,
0001
0010
0100
0001
0010
0100
0010
0100
1000
0001
0010
0100
,
1000
0100
0010
0100
0010
0001
1000
0100
0010
0001
0010
0100
,
1000
0100
0010
1000
0100
0010
0100
0010
0001
0100
0010
0001
,
1100
0000
0000
1001
0010
0100
0011
0100
1000
0101
0010
0001
,
1010
0100
0010
1100
0010
0001
1010
0100
0010
1001
0010
0100
,
2022
3033
0000
0000
0000
0000
0000
0000
0000
0000
0000
0000
;

//---------------dance-solo - ----------------
#NOTES:
     dance-solo:
     :
     Hard:
     14:
     1.000,1.000,1.000,0.090,1.000,387.000,111.000,4.000,0.000,70.000:
100000
010000
001000
000111
000000
000000
000001
000010
000100
111000
000000
000000
,
100000
000001
010000
001110
000000
000000
000001
100000
000010
011100
000000
000000
,
001100
000000
000000
000011
100000
010000
100010
001000
000100
110000
000010
010000
,
000011
000100
001000
100100
001000
000010
101000
000010
010000
001010
100000
000100
,
010010
001000
000100
100011
100011
000100
001000
010000
001000
110010
110010
001000
,
000100
000010
000001
111000
111000
000010
000100
001000
010000
001110
001110
100000
,
000001
010000
000010
011100
011100
000010
010000
000100
001000
110010
110010
000100
,
001000
000001
100000
001110
001110
100000
010000
001000
000100
110010
110010
001000
,
000001
010000
000100
011001
011001
000100
001000
000010
010000
001011
001011
100000
,
010000
000001
000010
011100
011100
000001
100000
000010
010000
001110
001110
010000
,
001000
000100
000010
111000
111000
000100
010000
000001
100000
001110
001110
100000
,
010000
001000
000100
010011
010011
000100
010000
000010
001000
100011
100011
001000
,
000100
000010
000001
011100
011100
000010
000100
001000
010000
000111
000111
100000
,
010000
001000
000100
110001
110001
000100
001000
000010
010000
001110
001110
010000
,
000001
001000
000010
011001
011001
000100
000010
010000
001000
100110
100110
001000
,
010000
000010
000100
011010
011010
000100
001000
000010
010000
001110
001110
000001
,
110000
110000
000000
100001
000100
011000
000010
100000
001100
010000
000010
101000
,
000100
010000
000011
001000
000010
011000
000100
100000
000011
001000
000100
010010
,
000100
100000
000110
001000
000010
110000
001110
001110
001110
111110
000000
000000
,
110000
110000
000000
000100
001000
110000
001000
000100
000011
010000
001000
000110
,
010000
000010
001100
100000
010000
001010
100000
000001
101000
000100
001000
010010
,
000100
100000
001010
000100
010000
000011
100000
010000
000110
001000
000010
111000
,
000111
000111
000111
011111
000000
000000
111000
111000
111000
111110
000000
000000
,
011110
011110
011110
111111
000000
000000
100000
010000
001000
000100
000010
000001
,
100000
010000
001000
100000
010000
001000
000001
000010
000100
000001
000010
000100
,
010000
001000
000100
010000
001000
000100
000010
000100
001000
000010
000100
001000
,
100000
000100
000001
100000
000100
000001
000100
001000
100000
000100
001000
100000
,
000010
000100
001000
000010
000100
001000
100000
000100
000010
100000
000100
000010
,
010000
001000
000100
010000
001000
000100
000001
010000
100000
001000
000010
000001
,
001000
000100
000010
001000
000100
000010
100000
010000
001000
000010
000100
001000
,
000001
000010
000100
010000
001000
000100
000001
001000
010000
000100
000010
000001
,
100000
010000
001000
100000
010000
001000
000010
000100
001000
000010
000100
001000
,
010010
000000
000000
100001
000100
001000
110000
001000
000100
000011
000100
001000
,
010010
000100
010000
000110
001000
000010
101000
000010
010000
000110
001000
000100
,
220022
000000
000000
000000
000000
330033
000000
000000
000000
000000
000000
000000
;
